#TITLE:The Tiki Tiki Room;
#SUBTITLE:;
#ARTIST:Hilary Duff;
#TITLETRANSLIT:The Tiki Tiki Room;
#SUBTITLETRANSLIT:;
#ARTISTTRANSLIT:Hilary Duff;
#CREDIT:;
#BANNER:The Tiki Tiki Room-bn.png;
#BACKGROUND:The Tiki Tiki Room-bg.png;
#LYRICSPATH:;
#CDTITLE:pm4cd.png;
#MUSIC:The Tiki Tiki Room.mp3;
#OFFSET:-0.020;
#SAMPLESTART:36.701;
#SAMPLELENGTH:20.000;
#SELECTABLE:YES;
#BPMS:0.000=186.100,338.750=93.040,356.750=186.100;
#STOPS:;
#BGCHANGES:;
// cache tags:
#FIRSTBEAT:14.750;
#LASTBEAT:487.000;
#SONGFILENAME:Songs/Music V.I.P ^_^/The Tiki Tiki Room/The Tiki Tiki Room.sm;
#HASMUSIC:1;
#HASBANNER:1;
#MUSICLENGTH:163.709;
// end cache tags

//---------------dance-single - ----------------
#NOTES:
     dance-single:
     :
     Hard:
     12:
     1.000,1.000,1.000,0.360,1.000,771.000,474.000,59.000,0.000,134.000:
0000
0000
0000
0000
,
0000
0000
0000
0000
,
0000
0000
0000
0000
,
0000
0000
0000
0000
0000
0000
0000
0000
0000
0000
0000
0010
0000
0000
0000
0000
,
0000
0100
0000
1000
0000
0100
0000
1000
0000
0100
0000
0011
0000
0000
0000
0000
,
0000
0100
0000
0010
0000
0100
0000
0010
0000
0100
0000
1010
0000
0000
0000
0000
,
0000
0100
0000
0001
0000
0100
0000
0001
0000
0100
0000
0011
0000
0000
0000
0000
,
0000
1000
0000
0100
0000
0001
0000
0100
0000
1000
0000
0110
0000
0000
0000
0000
,
0000
0100
0000
0001
0000
0010
0000
0001
0000
0100
0000
1010
0000
0000
0000
0000
,
0000
0100
0000
0011
0000
0100
0000
1001
0000
0100
0000
0011
0000
0000
0000
0000
,
0000
0100
0000
1001
0000
0010
0000
0101
0000
0100
0000
0011
0000
0000
0000
0000
,
0000
1000
0000
0101
0000
0010
0000
0110
0000
0100
0000
0011
0000
0000
0000
0000
,
0000
0001
0000
0110
0000
1000
0000
1100
0000
0100
0000
0111
0000
0000
0000
0000
,
0000
1001
0000
0101
0000
0110
0000
1001
0000
0011
0000
1100
0000
0000
0000
0000
,
0000
1001
0000
0101
0000
1010
0000
1100
0000
0101
0000
0110
0000
0000
0000
0000
,
0000
0101
0000
1010
0000
0110
0000
0011
0000
1100
0000
0101
0000
0000
0000
0000
,
0000
0011
0000
1100
0000
0110
0000
0011
0000
0101
0000
1001
0000
0000
0000
0000
,
0000
0110
0000
1001
0000
1010
0000
1100
0000
0110
0000
0011
0000
0000
0000
0000
,
0000
0011
0000
0101
0000
1001
0000
1010
0000
1100
0000
0110
0000
0000
0000
0000
,
0000
1010
0000
0101
0000
0011
0000
0110
0000
1100
0000
1001
0000
0000
0000
0010
,
0001
0010
0001
2020
0100
0001
0000
0000
0000
0000
0000
3131
0000
0010
0000
1100
,
0000
0100
0000
0101
0000
1000
0000
0001
0000
1000
0000
0110
0000
0000
0000
0000
,
0000
0100
0000
0011
0000
1000
0000
0101
0000
0010
0000
1001
0000
0000
0000
0000
,
0000
0010
0000
1100
0000
0100
0000
1001
0000
0010
0000
1010
0000
0000
0000
0000
,
0000
0010
0000
0101
0000
0100
0000
0011
0000
1000
0000
1010
0000
0000
0000
0000
,
0000
0010
0000
1100
0000
0100
0000
0101
0000
0010
0000
1001
0000
0000
0000
0000
,
0000
0010
0000
0110
0000
0100
0000
1001
0000
0010
0000
1100
0000
0000
0000
0000
,
0000
1000
0000
1100
0000
0001
0000
0101
0000
0010
0000
2020
0000
0000
0000
0000
,
0000
0000
0100
3232
0000
0000
0000
1000
0000
0010
0000
1313
0000
0110
0000
0011
,
0000
0110
0000
1100
0000
0110
0000
0011
0000
0110
0000
1100
0000
0110
0000
0000
,
0000
2002
0000
0000
0000
0010
0000
0000
0000
3103
0000
1001
0000
1010
0000
1100
,
0000
1010
0000
1001
0000
0101
0000
0011
0000
1001
0000
1010
0000
1100
0000
0000
,
0000
0220
0000
0000
0000
1000
0000
0000
0000
0331
0000
1010
0000
0100
0000
0011
,
0000
1000
0000
0101
0000
0000
0000
0000
0000
0001
0000
0110
0000
0100
0000
0011
,
0000
1000
0000
1001
0000
0000
0000
1000
0000
0001
0000
1010
0000
0110
0000
0101
,
0000
0110
0000
1010
0000
0110
0000
0101
0000
0110
0000
1010
0000
0110
0000
0000
,
0000
0202
0000
0000
0000
0000
0000
1000
0000
0313
0000
1010
0000
1100
0000
0110
,
0000
0101
0000
0011
0000
1010
0000
1100
0000
0110
0000
0011
0000
0101
0000
0000
,
0000
0022
0000
0000
0000
0100
0000
0000
0000
1033
0000
0011
0000
1001
0000
1100
,
0000
1001
0000
0011
0000
1001
0000
1100
0000
1001
0000
0011
0000
1001
0000
0000
,
0000
2200
0000
0000
0000
0001
0000
0000
0000
3310
0000
1100
0000
0001
0000
0100
,
0000
0001
0000
0110
0000
1000
0000
0100
0000
0010
0000
0011
0000
1000
0000
0001
,
0000
0010
0000
0101
0000
0010
0000
0100
0000
1000
0000
1001
0000
0010
0000
0100
,
0000
1000
0000
0100
0000
0010
0000
0001
0000
0010
0000
0100
0000
1000
0000
0000
,
0000
0220
0000
1000
0001
1000
0001
1000
0001
1330
0000
1111
0000
0000
0000
0000
,
0000
0001
0000
0110
0000
0100
0000
0011
0000
1000
0000
1001
0000
0000
0000
0000
,
0000
0100
0000
0011
0000
0010
0000
0101
0000
1000
0000
0011
0000
0000
0000
0000
,
0000
1000
0000
1001
0000
0010
0000
1100
0000
0100
0000
0011
0000
0000
0000
0000
,
0000
1000
0000
1001
0000
0010
0000
0110
0000
0001
0000
1100
0000
0000
0000
0000
,
0000
0100
0000
0101
0000
0010
0000
1010
0000
0001
0000
0110
0000
0000
0000
0000
,
0000
0001
0000
1001
0000
0010
0000
1100
0000
0001
0000
1020
0000
0100
0000
1000
,
0000
0000
0000
0001
0000
0000
0000
1000
0000
0100
0000
0100
0000
0000
0000
0001
,
0000
1000
0100
2032
0000
0000
0000
0010
0000
0100
0000
3113
0000
0011
0000
0110
,
0000
1100
0000
0110
0000
0011
0000
0110
0000
1100
0000
0110
0000
0011
0000
0000
,
0000
0022
0000
0000
0000
1000
0000
0000
0000
0133
0000
1010
0000
0101
0000
0011
,
0000
1100
0000
0101
0000
1010
0000
1100
0000
0011
0000
1010
0000
0101
0000
0000
,
0000
2200
0000
0000
0000
0010
0000
0000
0000
3301
0000
0110
0000
1000
0000
1100
,
0000
0010
0000
0101
0000
1000
0000
0100
0000
0001
0000
1100
0000
0010
0000
0101
,
0000
0100
0000
1001
0000
0010
0000
1000
0000
0001
0000
1100
0000
0011
0000
1001
,
0000
0110
0000
0011
0000
1100
0000
0110
0000
1001
0000
1100
0000
0011
0000
0000
,
0000
2002
0100
0010
0100
0010
0000
0000
0000
3113
0000
0110
0000
1010
0000
0110
,
0000
0101
0000
0110
0000
1010
0000
0110
0000
0101
0000
0110
0000
1010
0000
0000
,
0000
0202
0000
0000
0000
0010
0000
0000
0000
1303
0000
0110
0000
1001
0000
1010
,
0000
0101
0000
1001
0000
0110
0000
0101
0000
1010
0000
1001
0000
0110
0000
0000
,
0000
2020
0000
0000
0000
0001
0000
0000
0000
0100
0000
3131
0000
0010
0000
1001
,
0000
0001
0000
0110
0000
1000
0000
0010
0000
0001
0000
1010
0000
0010
0000
1100
,
0000
0010
0000
0101
0000
0010
0000
0001
0000
0100
0000
1010
0000
0101
0000
0011
,
0000
0110
0000
1100
0000
0101
0000
0110
0000
1010
0000
0110
0000
1001
0000
0000
,
0000
0022
0100
1000
0100
1000
0000
0000
0000
0033
0000
1111
0000
0000
0000
0000
,
0000
1001
0000
0101
0000
0011
0000
1100
0000
0110
0000
0101
0000
0000
0000
0000
,
0000
1001
0000
1010
0000
0110
0000
0101
0000
0011
0000
1100
0000
0000
0000
0000
,
0000
1100
0000
0110
0000
0011
0000
1001
0000
1010
0000
1100
0000
0000
0000
0000
,
0000
0101
0000
0110
0000
0011
0000
1100
0000
0101
0000
1001
0000
0000
0000
0000
,
0000
0011
0000
0110
0000
1001
0000
0110
0000
1100
0000
1010
0000
0000
0000
0000
,
0000
0101
0000
0011
0000
0110
0000
1010
0000
1100
0000
1001
0000
0000
0000
0000
,
0000
1100
0000
0101
0000
0110
0000
1010
0000
0011
0000
0110
0000
0000
0000
0000
,
0000
1000
0000
0010
0000
0100
0000
0010
0000
0001
0000
1001
0000
0000
0000
0000
,
0000
0011
0000
1110
0000
0101
0000
1011
0000
1100
0000
1110
0000
0000
0000
0000
,
0000
1001
0000
1011
0000
1100
0000
0111
0000
0011
0000
1110
0000
0000
0000
0000
,
0000
1001
0000
1011
0000
1010
0000
1110
0000
0011
0000
1101
0000
0000
0000
0000
,
0000
1100
0000
0111
0000
0101
0000
1110
0000
1010
0000
1101
0000
0000
0000
0000
,
0000
0101
0000
1011
0000
0110
0000
0111
0000
0101
0000
1011
0000
0000
0000
0000
,
0000
1010
0000
1101
0000
0011
0000
1110
0000
1001
0000
0111
0000
0000
0000
0000
,
0000
1100
0000
0111
0000
0011
0000
1110
0000
0101
0000
1011
0000
0000
0000
0000
,
0000
1001
0000
1110
0000
0011
0000
1101
0000
0101
0000
0112
0000
1000
0000
0100
,
0000
1000
0000
0023
0000
0100
0000
0001
0000
1000
0000
0230
0000
0001
0000
0010
,
0000
0001
0000
2300
0000
0100
0000
0001
0000
0010
0000
3200
0000
1000
0000
0001
,
0000
0010
0000
0302
0000
0100
0000
0010
0000
0100
0000
2003
0000
0001
0000
0100
,
0000
0010
0000
3200
0000
0001
0000
1000
0000
0010
0000
0302
0000
0100
0000
0010
,
0000
1000
0000
2023
0000
0000
0000
0000
0000
0000
0000
0001
0000
0100
0000
3131
,
0000
0000
0000
1011
0000
1100
0000
0101
0000
0011
0000
0110
0000
1100
0000
1010
,
0000
1001
0000
0110
0000
0101
0000
0000
0000
2002
0000
0000
0000
0100
0000
0000
,
0000
3013
0000
0101
0000
1010
0000
0101
0000
1010
0000
0101
0000
1010
0000
0101
,
0000
1010
0000
0101
0000
1010
0000
0000
0000
0220
0000
0000
0000
1000
0000
0000
,
0000
0331
0000
1100
0000
0001
0000
0010
0000
0001
0000
0101
0000
0010
0000
1100
,
0000
0100
0000
1010
0000
0100
0000
0001
0000
0100
0000
1010
0000
0100
0000
0110
,
0000
0001
0000
1100
0000
0011
0000
1100
0000
0011
0000
1100
0000
0011
0000
1100
,
0000
0011
0000
1100
0000
0011
0000
0000
0000
2020
0001
0100
0001
0100
0000
0001
,
0000
3230
0000
0001
0000
0010
0000
0001
0000
0010
0000
0001
0000
0010
0000
0001
,
0000
0010
0000
1000
0000
0001
0000
0000
0000
0322
0000
0000
0000
1000
0000
0000
,
0000
0133
0000
1111
0000
1001
0000
0101
0000
0011
0000
0101
0000
1010
0000
1100
,
0000
1001
0000
0101
0000
0011
0000
0000
0000
2002
0000
0000
0000
0010
0000
0000
,
0000
3103
0000
0110
0000
0001
0000
0010
0000
1000
0000
0101
0000
0010
0000
1100
,
0000
0100
0000
1001
0000
0100
0000
0010
0000
0001
0000
0101
0000
0010
0000
1100
,
0000
0100
0000
0101
0000
0100
0000
0010
0000
0010
0000
0001
0000
0001
0000
0010
,
0000
0010
0000
0100
0000
0100
0000
0000
0000
0220
0001
1000
0001
1000
0000
0000
,
0000
0330
0000
1111
0000
0000
0000
0000
0000
0101
0000
0111
0000
1010
0000
1101
,
0000
0101
0000
1011
0000
0000
0000
0000
0000
1100
0000
0111
0000
0101
0000
1011
,
0000
1010
0000
1101
0000
0000
0000
0000
0000
0011
0000
1101
0000
1010
0000
1110
,
0000
0110
0000
1011
0000
0000
0000
0000
0000
1100
0000
1101
0000
0011
0000
0111
,
0000
1100
0000
1011
0000
0000
0000
0000
0000
0110
0000
1101
0000
0110
0000
1110
,
0000
0101
0000
1011
0000
0000
0000
0000
0000
1010
0000
1101
0000
0110
0000
1110
,
0000
0110
0000
1011
0000
0000
0000
0000
0000
0011
0000
1110
0000
1100
0000
0111
,
0000
0011
0000
1011
0000
0000
0000
0000
0000
1100
0000
1011
0000
0110
0000
1110
,
0000
0101
0000
1111
0000
0000
0000
0000
0000
0100
0000
1010
0000
0010
0000
1100
,
0000
0001
0000
0110
0000
0000
0000
0000
0000
1000
0000
0101
0000
0010
0000
1010
,
0000
0100
0000
0011
0000
0000
0000
0000
0000
0001
0000
1001
0000
0100
0000
0011
,
0000
0010
0000
1100
0000
0000
0000
0000
0000
0001
0000
1010
0000
0010
0000
0011
,
0000
1000
0000
0111
0000
0000
0000
0000
0000
1110
0000
0111
0000
1110
0000
1011
,
0000
1101
0000
1011
0000
0000
0000
0000
0000
1011
0000
1110
0000
1101
0000
0110
,
0000
1200
0000
0000
0000
0001
0000
1000
0000
0010
0000
0000
1000
0000
0000
0000
,
0001
2300
0000
3000
;
